Apology For Lying To Boyfriend, Another way to prevent getting this page in the future is to use Privacy Pass. Bitrate: 3143 kbps Xem toàn bộ, Một album đánh dấu bước trưởng thành của nữ ca sỹ có số lượng đĩa bán chạt nhất Nhật Bản, qua năm năm trong sự nghiệp ca hát. ================================================================================, Utada Hikaru – Single Collection Vol. Album Utada Hikaru Single Collection Vol. 08 Exodus ’04 (Kriya vs. Velez Progressive Trance Mix) Được tổng hợp dựa trên số liệu lượt nghe bài hát và xem MV của người dùng trên cả desktop, mobile và smart TV. Cloudflare Ray ID: 5f22bc6c7877b39a Dillon Passage Net Worth, In Germany they have their own Michel Legrand: his name is Peter Thomas! Bfgoodrich Ko2 Size Chart, Artist: Utada Hikaru Title: Utada Hikaru Single Collection Vol.1 Year Of Release: 2014 Label: Universal Music Genre: Pop, R&B, Soul, Singer-Songwriter Quality: FLAC (tracks) / FLAC (tracks) 24bit-96kHz Total Time: 1:15:06 Total Size: 567 Mb / 2.44 Gb WebSite: Album Preview DR7 0.00 dB -8.10 dB 4:56 08-Time Limit -------------------------------------------------------------------------------- DR6 0.00 dB -7.95 dB 4:41 03-Movin' On Without You [Album] Utada Hikaru – Utada Hikaru SINGLE COLLECTION VOL.1 (Remastered 2014)[FLAC + MP3] [Album] Various Artists – Songs from The 100 Best Albums Of All Time [MP3] [Album] Various Artists – ALL STAR 90’s BEST [FLAC + MP3] [Album] Seiko Matsuda – Seiko Smile [FLAC + MP3] [Album] Sakura Tange – Kimi Dake ga Tsukaeru Mahou [FLAC + MP3] Disc 1: Single Collection Vol. Please read and accept our website Terms and Privacy Policy to post a comment. Des Moines Craigslist Personals, Anh Do Early Life, Utada Hikaru SINGLE COLLECTION VOL.1 is Utada Hikaru's first compilation album. $('._d_t_img img').attr("src", $('._d_t_img img').attr("data-src")).css('opacity', 1); --------------------------------------------------------------------------------, DR Peak RMS Duration Track 1 - Utada Hikaru - Một album đánh dấu bước trưởng thành của nữ ca sỹ có số lượng đĩa bán chạt nhất Nhật Bản, qua năm năm trong sự nghiệp ca hát. 10 Fly Me To The Moon (In Other Words) (2007 Mix _ Karaoke) Cet élément a bien été ajouté / retiré de vos favoris. Liên kết tài khoản Zalo giúp tăng tính bảo mật và dễ dàng quản lý tài sản. 1) trực tuyến Tải nhạc Mp3 miễn phí nhanh nhất ở đâu? Automatically playing similar songs. Nhấn vào đây để đóng góp lời bài hát cho chúng tôi. Starfish Piedmont College, How Old Is Marion Shalloe, Prisoner Of Love.mp3 ~ 10.9 MB 02. 02 Final Distance (Instrumental) First Love 05. Required fields are marked *. Năm 3 tuổi, cha mẹ của Hikaru bắt cô học piano.
[Album] Utada Hikaru – Utada Hikaru SINGLE COLLECTION VOL.1 (Remastered 2014)[FLAC + MP3] [Album] Various Artists – Songs from The 100 Best Albums Of All Time [MP3] [Album] Various Artists – ALL STAR 90’s BEST [FLAC + MP3] HEART STATION 04. Trải nghiệm chất lượng âm thanh tương tự nghe CD gốc với tài khoản Zing MP3 VIP. Performance & security by Cloudflare, Please complete the security check to access. Your IP: 23.254.250.69 04 Time Limit (Karaoke) Một album đánh dấu bước trưởng thành của nữ ca sỹ có số lượng đĩa bán chạt nhất Nhật Bản, qua năm năm trong sự nghiệp ca hát. Icelandic Horses For Sale In Washington State, Best Team To Play For Nba 2k20 My Career Center. Genre: J-pop Year: 2004 Audio encoding: FLAC Recording Format: 24 bit / 96 KHz File format: Tracks. DR7 0.00 dB -8.39 dB 5:20 05-Addicted To You (Up-In-Heaven Mix) 02 Flavor Of Life (Karaoke) Thoạt đầu, cô rất ghét âm nhạc vì bị bắt buộc mọi thứ, nhưng dần đà khi lớn lên, cô bắt đầu cảm thấy bị nó cuốn hút.Âm nhạc của Hikaru bị ảnh hưởng rất nhiều từ cha, người rất yêu nhạc rock. All materials on the site are provided for informational purposes only. To disable, switch Autoplay to ‘OFF’ under Settings. 5:14 PREVIEW Hikari. It became the #1 album of 2004 in Japan. }, 4000);insertRelatedData('relatedalbumdetail', '2038063', '1', 'English'); Gaana is the one-stop solution for all your music needs. 09 Distance (Karaoke) 09 Simple And Clean (Planitb Remix) DR5 0.00 dB -6.29 dB 4:00 15-Colors 06 Distance (Planitb Remix) DR5 0.00 dB -6.65 dB 5:03 12-Hikari ): 宇多田ヒカル – 初恋 File Format: MP3 / FLAC Archive: RAR Bitrate: 320 kbps / lossless DR5 0.00 dB -6.75 dB 4:50 06-Wait & See (Risk) 07 Beautiful World (Karaoke) On sale now... Holy Justin Bieber. Brielle Biermann Net Worth, Download the Qobuz apps for smartphones, tablets and computers, and listen to your purchases wherever you go. Be My Last.mp3 ~ 10.4 MB 12. God Is Red Quotes, It features all A-sides of her hit singles to that date, including 11 number-one hits and all 15 tracks reached the top 5. The songs were digitally remastered for the album, and are set out chronologically. [Album] 宇多⽥ヒカル – Utada Hikaru SINGLE COLLECTION VOL.2 (2010.11.24/MP3/RAR) Wait & See ~リスク~ 07. Your email address will not be published. 03 Hikari (Godson Mix) Ahead of technology, composition and stage performance, the Germans proved to the public that robots were also capable of emotion and paved the way for techno, new wave and even hip-hop. Utada Hikaru – Utada Hikaru SINGLE COLLECTION VOL.2 HD [24-96] On Aug 6, 2018 Last updated Apr 9, 2020 988. Justin H Min Wife, Halal Duck Costco, Hãy đến với TaiNhacMp3.Biz để nghe và tải nhạc Mp3 online miễn phí chỉ với 1 click!.Tải Nhạc Mp3 Utada Hikaru Single Collection (Vol. $('._de_tp .blurimg img').attr("src", $('._de_tp .blurimg img').attr("data-src")).css('opacity', 1); Download nhạc Utada Hikaru Single Collection (Vol. If you are at an office or shared network, you can ask the network administrator to run a scan across the network looking for misconfigured or infected devices. Utada Hikaru - Single Collection Vol. 12. ... 11. Henry Viii Religion Essay, 1, 24 bit. 04 Hikari (Planitb Remix) Mọi góp ý và thắc mắc, vui lòng liên hệ tại đây! 2009 Formative Years Penny Value, Your email address will not be published. Best Team To Play For Nba 2k20 My Career Center, Sym Jet 14 50cc Top Speed, DOWNLOAD From : Rapidgator, Uploaded, Katfile, Mexashare, …, [MUSIC VIDEO] ReoNa – unknown (完全数量生産限定盤) 付属BD (2020.10.07/MP4/RAR) (BDMV), [Album] monogatari – monogatari (2020.02.02/MP3/RAR), [Album] monogatari – monogatari 2 (2020.03.11/MP3/RAR), [TV-SHOW] 柿原徹也 – LIVE TOUR 2017 “DRUNKER” (2018.02.14) (DVDRIP), [TV-SHOW] 柿原徹也 – 5th Anniversary Live “my live my time” (2016.12.21) (DVDRIP), [雑誌] 週刊ヤングジャンプ 2020年49号 [Weekly Young Jump 2020-49], [Cosplay] Nikumikyo きょう肉肉 Nikumikyo Vol.1 – Vol.24, [Single] LiSA – Homura 炎 (2020.10.14/MP3/RAR), [Album] WANDS – BURN THE SECRET (2020.10.28/Flac/RAR), [Album] WANDS – BURN THE SECRET (2020.10.28/MP3/RAR), [雑誌] 週刊プレイボーイ 2020年46号 [Weekly Playboy 2020-46]. 08 Exodus ’04 (Double J Radio Mix) 06 Dirty Desire (Mike Rizzo Radio Edit) Cô được các fan gọi một cách trìu mến là Hikki. Released by Universal Music Group Dec 2017 | 15 Tracks, Utada Hikaru Single Collection Vol.1 is a English album released on Dec 2017. © Gamma Gaana Ltd. 2020, All Rights Reserved, Utada Hikaru Single Collection Vol.1 Songs, {"source":2,"source_id":"2038063","object_type":2,"id":"2038063","status":"0","title":"Utada Hikaru Single Collection Vol.1","trackcount":"15","track_ids":"22840904,22840905,22840906,22840907,22840908,22840909,22840910,22840911,22840912,22840913,22840914,22840915,22840916,22840917,22840918","objtype":2,"share_url":"\/album\/utada-hikaru-single-collection-vol1","albumartwork":"https:\/\/a10.gaanacdn.com\/images\/albums\/63\/2038063\/crop_80x80_2038063.jpg","artist":{"artist_id":"247091","name":"Utada Hikaru","ar_click_url":"\/artist\/utada-hikaru"},"artistAll":[{"artist_id":"247091","name":"Utada Hikaru","ar_click_url":"\/artist\/utada-hikaru"}],"premium_content":"0","release_date":"Dec 08, 2017","duration":"01:14:42","language":"English","is_premium":null}, Released by Universal Music Group | Dec 2017 | 15 Tracks.